The Sector 2016 1080p WEB-DL AAC H264 ACAB VIP+INTERNAL.[PRiME]

  • Category Movies
  • Type Divx/Xvid
  • Language English
  • Total size 3.1 GB
  • Uploaded By showstopper
  • Downloads 1870
  • Last checked 1 month ago
  • Date uploaded 1 month ago
  • Seeders 49
  • Leechers 28

The Sector

ActionScience Fiction

In a dystopian world, a bounty hunter sets out to capture a ruthless band of outlaws who have kidnapped an important father and daughter through a world of multiverses. Unbeknownst to the Outlaws and the Bounty Hunter is that another, more powerful man known only as The Finisher has plans of his own.

Infohash : 5E7EE8B2BB4E21D5ED0B85B8233C192131753892


The Sector 2016 1080p WEB-DL AAC H264 ACAB VIP+INTERNAL.[PRiME]

ImDb: http://imdb.com/title/tt3186552



Complete name : The Sector 2016 1080p WEB-DL AAC H264 ACAB [VIP+INTERNAL][PRiME].mkv
Format : Matroska
Format version : Version 4 / Version 2
File size : 3.06 GiB
Duration : 1 h 26 min
Overall bit rate : 5 092 kb/s
Encoded date : UTC 2016-07-10 12:35:37
Writing application : mkvmerge v9.2.0 ('Photograph') 64bit
Writing library : libebml v1.3.3 + libmatroska v1.4.4

Video
ID : 2
Format : AVC
Format/Info : Advanced Video Codec
Format profile : High@L4
Format settings, CABAC : Yes
Format settings, ReFrames : 4 frames
Codec ID : V_MPEG4/ISO/AVC
Duration : 1 h 26 min
Bit rate : 4 963 kb/s
Width : 1 908 pixels
Height : 1 068 pixels
Display aspect ratio : 16:9
Frame rate mode : Constant
Frame rate : 23.976 FPS
Color space : YUV
Chroma subsampling : 4:2:0
Bit depth : 8 bits
Scan type : Progressive
Bits/(Pixel*Frame) : 0.102
Stream size : 2.99 GiB (97%)
Language : English
Default : Yes
Forced : No
Color range : Limited
Color primaries : BT.709
Transfer characteristics : BT.709
Matrix coefficients : BT.709

Audio
ID : 1
Format : AAC
Format/Info : Advanced Audio Codec
Format profile : LC
Codec ID : A_AAC
Duration : 1 h 26 min
Bit rate : 127 kb/s
Channel(s) : 2 channels
Channel positions : Front: L R
Sampling rate : 48.0 kHz
Frame rate : 46.875 FPS (1024 spf)
Compression mode : Lossy
Stream size : 78.4 MiB (2%)
Language : English
Default : Yes
Forced : No

Menu
00:00:00.000 : en:Chapter 1
00:03:46.476 : en:Chapter 2
00:09:52.133 : en:Chapter 3
00:16:21.605 : en:Chapter 4
00:20:19.759 : en:Chapter 5
00:25:58.931 : en:Chapter 6
00:29:11.581 : en:Chapter 7
00:33:45.730 : en:Chapter 8
00:40:01.939 : en:Chapter 9
00:45:01.363 : en:Chapter 10
00:52:02.701 : en:Chapter 11
00:59:34.402 : en:Chapter 12
01:05:11.363 : en:Chapter 13
01:12:02.107 : en:Chapter 14
01:19:00.733 : en:Chapter 15
01:24:05.704 : en:Chapter 16




Click Image To View Full Size


Click To View Screenshot
Click To View Screenshot
Click To View Screenshot

Files:

The Sector 2016 1080p WEB-DL AAC H264 ACAB VIP+INTERNAL.[PRiME]
  • Please Support!! Read More!!!.txt (0.2 KB)
  • The Sector 2016 1080p WEB-DL AAC H264 ACAB [VIP+INTERNAL][PRiME].mkv (3.1 GB)
  • Torrent Downloaded From science-project.ru.txt (0.1 KB)
  • Torrent Downloaded From ExtraTorrent.cc.txt (0.4 KB)
  • Torrent downloaded from AhaShare.com.txt (0.1 KB)

Comments

Code:

  • udp://tracker.ilibr.org:6969/announce
  • udp://tracker.coppersurfer.tk:6969
  • udp://tracker.ilibr.org:80/announce
  • udp://tracker.coppersurfer.tk:6969/announce
  • udp://tracker.leechers-paradise.org:6969/announce
  • udp://tracker.opentrackr.org:1337/announce
  • udp://tracker.zer0day.to:1337/announce
  • udp://ipv4.tracker.harry.lu:80/announce
  • udp://p4p.arenabg.ch:1337/announce
  • udp://p4p.arenabg.com:1337/announce
  • udp://9.rarbg.com:2710/announce
  • udp://9.rarbg.to:2710/announce
  • udp://9.rarbg.me:2710/announce
  • udp://explodie.org:6969/announce
  • udp://eddie4.nl:6969/announce