Lady Bloodfight (2016)1080p Blu-Ray x264 DTSHD 5.1 -DDR

  • Category Movies
  • Type HD
  • Language English
  • Total size 9.3 GB
  • Uploaded By SaM
  • Downloads 392
  • Last checked 6 hours ago
  • Date uploaded 2 months ago
  • Seeders 15
  • Leechers 10

Infohash : 4B34FAA2094A791A54A9F7D0B5702EAF2F9D0D18




HQ 1080p Blu-Ray Rip x264

English DTSHD-MA 5.1 Audio

Danish/Finish/Norwegian/Swedish Subs

SCREENSHOTS


SPECS


Source: Blu-ray

Format : Matroska
File size : 9.29 GiB
Duration : 1 h 36 min
Overall bit rate : 13.8 Mb/s

Video
Format : AVC
Format/Info : Advanced Video Codec
Format profile : [email protected]
Format settings, CABAC : Yes
Format settings, ReFrames : 5 frames
Codec ID : V_MPEG4/ISO/AVC
Duration : 1 h 36 min
Bit rate : 10.0 Mb/s
Width : 1 920 pixels
Height : 800 pixels
Display aspect ratio : 2.40:1
Frame rate mode : Constant
Frame rate : 25.000 FPS
Color space : YUV
Chroma subsampling : 4:2:0
Bit depth : 8 bits
Scan type : Progressive
Bits/(Pixel*Frame) : 0.260
Stream size : 6.74 GiB (72%)
Default : Yes
Forced : No
Color range : Limited
Color primaries : BT.709
Transfer characteristics : BT.709
Matrix coefficients : BT.709

Audio #1
Format : DTS
Format/Info : Digital Theater Systems
Format profile : MA / Core
Mode : 16
Format settings, Endianness : Big
Codec ID : A_DTS
Duration : 1 h 36 min
Bit rate mode : Variable / Constant
Bit rate : 3 722 kb/s / 1 509 kb/s
Channel(s) : 6 channels
Channel positions : Front: L C R, Side: L R, LFE
Sampling rate : 48.0 kHz
Frame rate : 93.750 FPS (512 spf)
Bit depth : 24 bits
Compression mode : Lossless / Lossy
Stream size : 2.51 GiB (27%)
Language : English
Default : Yes
Forced : No

Chapters : YES

SAMPLE Included



A DDR Exclusive Encode



Files:

Lady Bloodfight (2016)1080p Blu-Ray x264 DTSHD 5.1 -DDR
  • Lady Bloodfight (2016)1080p Blu-Ray x264 DTSHD 5.1 -DDR.mkv (9.3 GB)
  • sample-Lady Bloodfight (2016)1080p Blu-Ray x264 DTSHD 5.1 -DDR.mkv (46.8 MB)
  • A DDR Release !!!.txt (0.3 KB)
  • Torrent downloaded from ExtraTorrent.cc.txt (0.0 KB)

There are currently no comments. Feel free to leave one :)

Code:

  • udp://tracker.coppersurfer.tk:6969/announce
  • udp://tracker.zer0day.to:1337/announce
  • udp://tracker.ilibr.org:6969/announce
  • udp://tracker.leechers-paradise.org:6969/announce
  • udp://torrent.gresille.org:80/announce
  • udp://tracker.ilibr.org:80/announce
  • udp://p4p.arenabg.com:1337/announce
  • udp://p4p.arenabg.ch:1337/announce
  • udp://tracker.leechers-paradise.org:6969/announce
  • udp://tracker.coppersurfer.tk:6969/announce
  • udp://9.rarbg.me:2710/announce
  • udp://tracker.internetwarriors.net:1337/announce
  • udp://tracker.opentrackr.org:1337/announce
  • udp://eddie4.nl:6969/announce
  • udp://9.rarbg.to:2710/announce